WK綜合論壇, WK综合论坛

查看:127 回復:1 發表於 2021-7-22 05:02:13
本主題由 212love 於 2021-7-25 15:53 解除高亮
累計簽到:2133 天
連續簽到:1 天
發表於 2021-7-21 11:51:31 | 顯示全部樓層 |閱讀模式
VIP精品區,資源無限好賺金任務區,輕松賺金幣
加入VIP,享受高級特權宣傳賺金又升級,超級棒

我沒談完的那場戀愛.Between.Us., 2021.[MKV / 10.84G] 國語 2160p [複製鏈接]

影視分享
分類: 電影
題材: 愛情 
地區: 中港台 
語言: 國語 
格式: MKV 
年份: 2021
資源: BT资源

4 `0 B9 S- j' Z5 W: [
1 _, f0 B+ u. f3 u& U◎译  名 我没谈完的那场恋爱 / 不说再见" V5 n; `" [, l; y0 v( C
◎年  代 2021
( k8 D8 E  A3 R! w◎产  地 中国大陆4 Z7 s: x" \$ h6 }: o$ V
◎类  别 爱情
3 i( a* c" ]4 Y6 F1 k! G◎语  言 汉语普通话
+ _* z7 c. ~" A# x2 J* N* E# {◎上映日期 2021-06-25(中国大陆)6 m) K7 A, P" z" X  [8 o
◎IMDb链接 https://www.imdb.com/title/tt11662974/
( H, \, z  d8 H1 T/ \/ z4 I' k7 o4 l◎豆瓣评分 4.0/10 (3177人评价); a( C/ h* G8 [& L1 z: \6 G; ]
◎豆瓣链接 https://movie.douban.com/subject/35442444/2 w& K- b; I, ]5 b1 G. U- I% R7 J
◎片  长 97分钟
2 u& X: G- Z8 z3 ~◎导  演 赵宇 Yu Zhao (id:1320916)  a$ r, b% k; H9 }" ?: L3 S7 I
◎编  剧 赵宇 Yu Zhao (id:1320916)5 \1 n# {, c! f3 {' D
      陈梦怡 (id:1457200)
! I: }& p) e5 z- X' |# E8 S# |      李绚彦 Xuanyan Li (id:1335262)
7 p& r2 \& @. Q; P0 S% \◎演  员 于文文 Kelly Yu (id:1342252)1 U6 z3 x  R! A4 J0 V6 L/ o, L
      宋宁峰 Ningfeng Song (id:1313368)  x5 O" [/ [" K1 }
      刘琦 Mulligan liu (id:1398572)* z5 ^4 Z5 y! p; N3 F8 o- K
      李博 Bo Li (id:1456618)0 y3 k" [; L2 M/ @: @; H
      刘奕 Yi Liu (id:1335268)& l  D" m7 @1 o8 Q9 _1 T
      尹菲 Fei Yin (id:1350802)# Y; \3 S" v. ^2 T. [8 W; r* F* }% M
      曹力 Li Cao (id:1274714)5 T- ^; F/ U) F) \! c
      佘南南 Nannan She (id:1342105)
4 I( ]: a, }% Q1 w3 d6 o. V, x; Q: i      殷成阳 Chengyang Yin (id:1408013)) B' M/ E4 S2 Z! |5 k; p

8 r3 W' e1 p/ ^( D9 `◎标  签 爱情 / 遗憾 / 音乐 / 梦想 / 国产 / 2021 / 渐冻症 / 怀旧
( b: V* d  ]* W! b3 R1 y, E8 R* k, F" r3 m) o
◎简  介  h" w( d# ]" Z; G6 G3 Q( F
  本片讲述了两个千差万别却同样迷茫的年轻音乐人,一个是多年打拼,事业毫无起色,又屡遭生活暴击的和声歌手珊妮,一个是身患重病,隐姓埋名等待死亡降临的前摇滚乐手董东,对生命感到绝望的二人在自我了断时相遇......自杀计划流产,他们的生活也因彼此的出现发生改变。$ F# \" Z" Y+ A/ e9 j; j
另外一个时空的故事,从珊妮意外发现的一本1970年代的日记中铺陈开来,一段没有下文的悲伤爱情竟然在珊妮的努力下尘埃落定。跟音乐、爱情和人生有关的种种,让珊妮与董东的相遇愈发神奇。千丝万缕中,是否每一种爱都能开花结果? 他们能否找到继续爱这个世界的理由?
; M, [# n5 }' ^2 V) ~% t' Y- G
General
5 e  q# [& m% T; I5 kComplete name : 我没谈完的那场恋爱.Between Us 2021 WEB-DL 2160p H265 [email protected]$ n, J0 @$ x4 W- I
Format : MPEG-4( W* |- `$ f0 S- }
Format profile : Base Media
7 F+ e! S+ d, a6 h  rCodec ID : isom (isom/iso2/mp41)8 z1 K' d& Q: J9 n. b
File size : 10.8 GiB7 J) ?: t# L4 r, P
Duration : 1 h 37 min
2 U* g8 d  v# e/ pOverall bit rate : 16.0 Mb/s4 ~' Q6 c) i2 R2 J3 h
Recorded date : 2021-07-18T07:16:49.4348074+08:009 x- L2 r) J9 p3 b+ V/ s, f
Writing application : Lavf58.32.104
' U1 r% c0 s- N9 A/ n8 Q/ \$ J* u: b4 U; o
Video2 N. v$ I. G! w" H7 x# T* ?* J  @/ a
ID : 1( p& e$ U2 [; Q
Format : HEVC$ |6 Z. S% F9 f" m9 z
Format/Info : High Efficiency Video Coding, W" U; W7 ]$ N6 [/ e
Format profile : [email protected]@Main) l' R% L0 |, ^- R0 f* ~8 ~# b
Codec ID : hev1
. f& v: Y- v* Q8 _" SCodec ID/Info : High Efficiency Video Coding/ [" W6 _; D# y6 X6 I
Duration : 1 h 37 min
% K5 ^0 h( a& O0 a" z7 T& W/ cBit rate : 15.8 Mb/s; I' H4 \$ G1 Q  o# D
Width : 3 840 pixels5 l  J, v, N+ i7 Y7 [
Height : 2 160 pixels2 ?2 b0 S1 U, L+ `/ I% a
Display aspect ratio : 16:9/ {3 C! X! N7 x
Frame rate mode : Constant. W; A4 N6 D+ z3 t: W' @% z
Frame rate : 24.000 FPS
& I2 J1 W. p8 P3 f3 @" [. GColor space : YUV' D; ~0 {1 T/ Y) m  k: v2 ]
Chroma subsampling : 4:2:0
: j" r2 n% b' l/ q" p: R/ C$ xBit depth : 8 bits
7 X5 c0 c* C, c7 V* s" H5 k0 d  R4 ]( ZBits/(Pixel*Frame) : 0.079
( u: c6 N; [. T' T' E5 B- R' LStream size : 10.7 GiB (99%)
/ Y# z8 t5 u; i! m7 `; }' BCodec configuration box : hvcC
% c+ V! c- Q5 `/ ]; ~' f4 }. @3 T' ?6 k3 n: T0 i
Audio* U% ^# [4 M+ R4 @, Y. ?0 c
ID : 2. k8 x# k% s# B! @' d
Format : AAC LC
" t% t) H, n$ p4 x- [9 TFormat/Info : Advanced Audio Codec Low Complexity# t9 L( S' ~4 z( V! X7 d9 G
Codec ID : mp4a-40-2( Y* h8 W6 x; j4 W# p
Duration : 1 h 37 min$ a) A/ k. H! \# }4 \+ `
Bit rate mode : Constant4 s2 S, m8 P- |- }0 q5 C+ j3 I
Bit rate : 192 kb/s5 m! G' D4 o  c% \$ B3 S7 ^1 X
Channel(s) : 2 channels3 h8 C7 q; q5 F( h: N3 F9 l- v( N8 [4 q
Channel layout : L R9 F. `3 ]3 l- r$ [; l( n
Sampling rate : 44.1 kHz
3 R. G% P  p+ b/ o3 l- F/ oFrame rate : 43.066 FPS (1024 SPF)
8 ]4 {2 E# [# M3 \, p1 `# OCompression mode : Lossy0 N1 V, g& s+ C% d
Stream size : 132 MiB (1%)& R4 P: q$ R& S) p5 u# I: J- U" }
Default : Yes( u  W* i0 q, B* t6 i+ C' b* m
Alternate group : 1

( ^! |$ b' m/ Y. v& b, R) w* t: f4 r! k. _; s

9 ^! U0 @  b) z) y6 s, C  L/ |; O

我沒談完的那場戀愛. MKV.torrent

31.82 KB, 下載次數: 23

累計簽到:74 天
連續簽到:74 天
發表於 2021-7-22 05:02:13 | 顯示全部樓層
VIP精品區,資源無限好賺金任務區,輕松賺金幣
加入VIP,享受高級特權宣傳賺金又升級,超級棒
本片講述了兩個千差萬別卻同樣迷茫的年輕音樂人跟音樂、愛情和人生有關的種種....耐人尋味 感謝樓主精采分享

回復樓主 親!! 現在是淩晨!妳失眠啦?餓啦?通宵加班?還是想WK啦?

 分享同時學會感恩,一句感謝的話語,就是最大的支持!  歡迎交流討論
您需要登錄後才可以回帖 登錄 | 立即注册

本版積分規則

c重要聲明:本論壇是以即時上載言論的方式運作,WK論壇對所有言論的真實性、立場及版權等,不負任何法律責任。而一切言論只代表發佈者個人意見,並非本網站之立場,讀者及用戶務必自行判斷內容之真實性。 由於本論壇受到「即時上載言論」運作方式所規限,故不能完全監察所有言論,若讀者及用戶發現有內容出現「真實性、立場及版權」等問題,請聯絡我們:[email protected]論壇有權刪除任何言論(刪除前或不會作事先警告及通知)| SiteMap[網站地圖]

發表新帖 返回頂部