WK綜合論壇, WK综合论坛

查看:219 回復:4 發表於 2021-7-23 18:07:22
本主題由 212love 於 2021-7-25 15:53 解除高亮
累計簽到:2133 天
連續簽到:1 天
發表於 2021-7-21 12:03:20 | 顯示全部樓層 |閱讀模式
VIP精品區,資源無限好賺金任務區,輕松賺金幣
加入VIP,享受高級特權宣傳賺金又升級,超級棒

未懷孕/堕胎 Unpregnant, 2020.[MKV / 10.54G] 2160p [複製鏈接]

影視分享
分類: 電影
題材: 劇情 喜劇 
地區: 美國 
語言: 英语 
格式: MKV 
年份: 2020
資源: BT资源
1.png
8 U4 u: O6 a& s7 f  C1 J
- l! C! K/ y# n5 [8 h' C$ S" J$ z. @2 l◎译  名 未怀孕/堕胎
: r9 d- v5 G* R◎片  名 Unpregnant  @" X3 [8 Y" r4 V3 M/ }+ c  v/ u, T& c
◎年  代 2020
4 c) d6 F- v3 Y% Q& ?; G$ q◎产  地 美国
4 M; }% g+ i  E/ M2 B5 r- m◎类  别 剧情 / 喜剧
$ i1 }4 h5 w0 A) L8 f' z◎语  言 英语5 H& X+ \- P5 N8 K( y2 G
◎上映日期 2020-09-10(美国网络)
. L. b  e" e' C0 i$ @" o  n7 c◎豆瓣评分 6.8/10 from 1496 users5 K4 V0 L+ j/ e" H1 g# m
◎豆瓣链接 https://movie.douban.com/subject/34440481/
, Z8 x  f# o; |. }! R5 O' h◎片  长 103分钟( d+ x" V/ T/ Z% n; X# O
◎导  演 蕾琪儿·戈登堡 Rachel Goldenberg, @: _# G- E2 g
◎编  剧 詹妮·亨德里克斯 Jenni Hendriks / 蕾琪儿·戈登堡 Rachel Goldenberg / 比尔·帕克 Bill Parker / 詹尼弗·凯廷·罗宾逊 Jennifer Kaytin Robinson / 泰德·卡普兰 Ted Caplan / Ted Caplan Ted Caplan
4 i' G( m7 B1 W1 m2 F5 P2 P' p$ K$ b◎主  演 海莉·露·理查森 Haley Lu Richardson. y3 A) I" ~0 A  J% k! k; ^: Q4 [
      芭比·费雷拉 Barbie Ferreira
8 x$ L; L4 u+ _9 N& Y      吉安卡罗·埃斯波西托 Giancarlo Esposito
5 ~2 m/ H7 e4 S5 L8 f, }( e1 w% c( ~      亚历克斯·马克尼科尔 Alex MacNicoll
) j! i$ r  @; `; \      布瑞金·梅耶 Breckin Meyer6 ]0 u& }: P9 P& R6 L7 m5 v+ K1 b. o
      舒格·林·彼尔德 Sugar Lyn Beard  x; J* E. E  t: ^
      丹尼·洛夫 Denny Love, r1 p5 [, L  w6 [  w6 \; h
      玛丽·麦克科马克 Mary McCormack
2 a0 p% U" m2 o! Q1 l8 w- ~      贝蒂·胡 Betty Who$ K/ u# R+ m  Q1 J# [4 W: @
      杰瑞尔·普雷斯科特 Jeryl Prescott6 {# R, N5 P8 Z; Q* u+ j2 |" h
      雷蒙娜·杨 Ramona Young. W* K4 d1 ^6 d0 |
      卡拉·罗伊斯特 Kara Royster
3 a& ]- y8 n4 _" a" b5 @. j% @      梅格·史密斯 Meg Smith
, S: z# E# r  A- j4 r& F      莎朗·安妮·亨德森 Sharon Anne Henderson. W+ \! A. H# B! g9 o
      马科斯·德席尔瓦斯 Marcos De Silvas1 k# X" ~5 w4 x2 n6 z- Q
      戴安娜·维利加斯 Diane Villegas7 `- ~/ s  A5 v
      玛丽·瓦根曼 Marie Wagenman, c+ ~' V5 W, ]% p

! j+ B# t" d2 z; Q& J- a. e8 E◎标  签 青春 | 喜剧 | 美国 | 公路 | 成长 | 2020 | 友情 | 剧情
& a! K1 X  k( f1 b0 i
+ x% T, g* n7 j) i- P( e◎简  介 1 h, n6 G# U- X
( f1 d7 o' h6 s6 f& O  O  c- S% `
  女孩Veronica(理查森)发现自己怀孕了,她只能和有车的“前”好友Bailey(Ferreira)一起上路,寻求合法堕胎:Veronica的男友很窝囊,她自己也不想这么年轻就当妈妈,不然会影响她的常春藤大学梦。而她所在的美国密苏里州规定未成年人必须有父母同意才能堕胎,她的父母并不同意。Veronica决定旅行900英里,去新墨西哥州堕胎后回家。
9 v) e( v! J. x8 h  ' [& S" a) @$ o, v" F
  Veronica是个沉迷于ins、成绩优秀、雄心勃勃的好学生,而Bailey是个孤独、毒舌的酷儿,对Veronica的新朋友们忍耐度为零。这样两个人怀着这样的目标一起上路,途中行差踏错,既有动情之处,又有幽默。% W  D! S1 B: C7 o" J% {8 X
Video
5 h( d$ i# G/ `6 j7 r5 EID : 1
$ Q& N* X( l( m+ u, @, l+ QFormat : HEVC5 ^0 @# B+ h- l$ D/ Q
Format/Info : High Efficiency Video Coding
. s* A% s2 `: pFormat profile : Main [email protected]@High
: H0 ~6 z5 I6 k% q  \) `& _HDR format : SMPTE ST 2086, HDR10 compatible! s7 c" l1 F7 b  I
Codec ID : V_MPEGH/ISO/HEVC9 S% C  t8 z1 G# e: b) C
Duration : 1 h 43 min
" ?8 l+ ]  C4 d! R* \4 d) vBit rate : 14.2 Mb/s
, D' H& N, Q1 W, ]% U4 b4 bWidth : 3 840 pixels6 Q: ?' F9 l& G) T4 U
Height : 1 608 pixels
3 ?4 U0 F) `! D# KDisplay aspect ratio : 2.40:1" n* u" y2 c4 C7 C
Frame rate mode : Constant
. `4 _: Q, R& Y: _4 b5 DFrame rate : 23.976 (24000/1001/189150) FPS6 w1 R$ p! C/ ^( e; z$ u3 j+ m0 Y- f& {
Color space : YUV- w" g5 n$ ~4 |2 n" J- c: ]
Chroma subsampling : 4:2:0 (Type 2)
- d) w6 y- f) x: U6 I  W! W! pBit depth : 10 bits- h' H: M2 P& u5 ~7 [" M% _
Bits/(Pixel*Frame) : 0.0965 t7 u# ]. \7 q& q8 ]+ _
Stream size : 10.3 GiB (97%)) t' X: X% d& X
Language : English
6 ^' O& p) B! ]# \9 `Default : Yes# O1 S7 J% ~+ s1 K  K' [
Forced : No
0 `, ]0 t, y: zColor range : Limited$ ~: a1 e( b  f
Color primaries : BT.2020
% L, Y) Z) P- YTransfer characteristics : PQ/ c" U' R# G; Y5 i! c9 @
Matrix coefficients : BT.2020 non-constant
" X+ F  u9 Y1 \Mastering display color primaries : BT.2020
0 ?- `2 R* U& u; ?Mastering display luminance : min: 0.0050 cd/m2, max: 1000 cd/m2
- u! ]% O! C3 d6 i  W8 B: ?8 bMaximum Content Light Level : 978 cd/m2; d/ c6 C' r# p  P
Maximum Frame-Average Light Level : 155 cd/m2
" p7 r. }2 q  z9 \0 [  p, a1 U0 V+ E$ A' [  t1 l
Audio
* Z2 r! ~  B! u# n  S' ZID : 2
+ N* M1 x3 R( Y! J4 \- ^: ZFormat : AC-3" P3 a9 g# b( J! y' G2 r, ~
Format/Info : Audio Coding 3
$ y: T5 ?* ]4 y7 BCommercial name : Dolby Digital
% B4 q6 O7 \5 B1 Y! S( qCodec ID : A_AC3
( _+ p3 s  U- B/ [6 M  G' z; C& _Duration : 1 h 43 min
7 n% ]3 G# J3 ~6 {0 m- @& m6 IBit rate mode : Constant
1 i1 `$ e5 a6 X: g& n' n7 OBit rate : 384 kb/s' k* }& z& G' V2 i. d
Channel(s) : 6 channels6 n  ]; F" K8 p
Channel layout : L R C LFE Ls Rs
' s2 x5 R$ ]/ p4 y/ jSampling rate : 48.0 kHz
% O8 P! l9 }* l# n' G3 ], ?Frame rate : 31.250 FPS (1536 SPF)
  @$ s$ }1 R( x* |6 g# ]( aCompression mode : Lossy( P4 ^( ~8 X9 O2 [. o9 K
Stream size : 285 MiB (3%)
6 e0 a0 l6 g- BLanguage : English
$ b0 v0 h& o& U8 M/ pService kind : Complete Main  D% p0 t5 t$ k) M
Default : Yes; e; P8 ]: v, o" d
Forced : No8 C* G0 g: a3 x
, n7 d/ ^$ D6 W( q; n
Text4 _! E9 A! T) |# [3 H/ B) s
ID : 3/ ?; L2 V# x5 r$ f/ [, L
Format : UTF-8, q6 D$ W5 N5 M, Y
Codec ID : S_TEXT/UTF83 i" r* w4 R4 b+ F
Codec ID/Info : UTF-8 Plain Text' {; L; E- H% m* A
Duration : 1 h 39 min
- d. N  H7 `' A- aBit rate : 78 b/s; W8 Y& `9 B6 z$ h
Count of elements : 1677
$ x2 p4 c' z3 s$ d* I/ q9 c& {Stream size : 56.7 KiB (0%)
$ ]+ s9 S$ z" g) iTitle : (SDH)5 @" G1 l6 d) L  P
Language : English
' @7 P  ~2 U/ t2 J7 n/ kDefault : No
8 C0 z! [# O, GForced : No
4 x3 x& w! `' w2 v/ u5 g+ x% K; ]1 }  z
2 E1 @$ v- m, ]) z* D- U

未懷孕. MKV.torrent

13.81 KB, 下載次數: 8

累計簽到:74 天
連續簽到:74 天
發表於 2021-7-22 05:11:08 | 顯示全部樓層
VIP精品區,資源無限好賺金任務區,輕松賺金幣
加入VIP,享受高級特權宣傳賺金又升級,超級棒
兩個人懷著這樣的目標一起上路,途中行差踏錯,既有動情之處,又有幽默。感謝樓主精采分享。
累計簽到:271 天
連續簽到:2 天
發表於 2021-7-22 21:18:02 | 顯示全部樓層
VIP精品區,資源無限好賺金任務區,輕松賺金幣
加入VIP,享受高級特權宣傳賺金又升級,超級棒
感謝樓主精采分享
累計簽到:251 天
連續簽到:2 天
發表於 2021-7-23 18:07:18 | 顯示全部樓層
感謝大大的辛勞分享!我會繼續在WK關注大大的文章!
累計簽到:251 天
連續簽到:2 天
發表於 2021-7-23 18:07:22 | 顯示全部樓層
VIP精品區,資源無限好賺金任務區,輕松賺金幣
加入VIP,享受高級特權宣傳賺金又升級,超級棒
感謝大大的辛勞分享!我會繼續在WK關注大大的文章!

回復樓主 親!! 現在是淩晨!妳失眠啦?餓啦?通宵加班?還是想WK啦?

 分享同時學會感恩,一句感謝的話語,就是最大的支持!  歡迎交流討論
您需要登錄後才可以回帖 登錄 | 立即注册

本版積分規則

c重要聲明:本論壇是以即時上載言論的方式運作,WK論壇對所有言論的真實性、立場及版權等,不負任何法律責任。而一切言論只代表發佈者個人意見,並非本網站之立場,讀者及用戶務必自行判斷內容之真實性。 由於本論壇受到「即時上載言論」運作方式所規限,故不能完全監察所有言論,若讀者及用戶發現有內容出現「真實性、立場及版權」等問題,請聯絡我們:[email protected]論壇有權刪除任何言論(刪除前或不會作事先警告及通知)| SiteMap[網站地圖]

發表新帖 返回頂部